4 июля 2011

25/17 - Бесконечное одиночество (2011)

--- | автор: admin | Просмотров: 1225


Название диска: 25/17 - Бесконечное одиночество
Год выхода: 2011
Жанр: Rap
Продолжительность: 00:03:33 минут
Размер: 154 MB

Качество: HDTV
Видео: MPEG4 Video (H264), 1920x1080
Звук: AAC, 44100Hz, stereo


General
Format : Flash Video
File size : 22.2 MiB
Duration : 3mn 22s
Overall bit rate : 920 Kbps
httphostheader : v15.lscache7.c.youtube.com
Video
Format : AVC
Format/Info : Advanced Video Codec
Format profile : Main@L3.0
Format settings, CABAC : Yes
Format settings, ReFrames : 3 frames
Format settings, GOP : M=1, N=50
Codec ID : 7
Duration : 3mn 22s
Bit rate : 801 Kbps
Width : 600 pixels
Height : 480 pixels
Display aspect ratio : 5:4
Frame rate mode : Constant
Frame rate : 25.000 fps
Color space : YUV
Chroma subsampling : 4:2:0
Bit depth : 8 bits
Scan type : Progressive
Bits/(Pixel*Frame) : 0.111
Stream size : 19.3 MiB (87%)
Audio
Format : AAC
Format/Info : Advanced Audio Codec
Format profile : LC
Codec ID : 10
Duration : 3mn 22s
Bit rate : 113 Kbps
Channel(s) : 2 channels
Channel positions : Front: L R
Sampling rate : 44.1 KHz
Compression mode : Lossy
Stream size : 2.73 MiB (12%)


Скачать 25/17 - Бесконечное одиночество (2011) WEBRip

Оплата услуг:

Моментальная оплата:
Мобильной связи,
Интернета,

Телевидения,
IP-телефонии,
Коммунальных и других услуг... За WebMoney, Яндекс-деньги и т.д.

Контакты:

ICQ: 37-07-403 (Администратор)

Календарь: