4 июля 2011

Баста / Гуф - Самурай (2011)

--- | автор: admin | Просмотров: 1477


Название диска: Баста / Гуф - Самурай
Год выхода: 2011
Жанр: Rap
Продолжительность: 00:05:17
Размер: 55 MB

Качество: HDTV 720p
Видео: MPEG4 Video (H264), 1280x720
Звук: AAC, 44100Hz, stereo


General
Format : MPEG-4
Format profile : Base Media / Version 2
Codec ID : mp42
File size : 54.9 MiB
Duration : 5mn 16s
Overall bit rate : 1 458 Kbps
Encoded date : UTC 2011-04-24 14:56:32
Tagged date : UTC 2011-04-24 14:56:32
gsst : 0
gstd : 316200
gssd : B4A7DA848HH1303747702455248
gshh : v16.lscache5.c.youtube.com
Video #1
ID : 1
Format : AVC
Format/Info : Advanced Video Codec
Format profile : High@L3.1
Format settings, CABAC : Yes
Format settings, ReFrames : 1 frame
Format settings, GOP : M=1, N=60
Codec ID : avc1
Codec ID/Info : Advanced Video Coding
Duration : 5mn 16s
Bit rate mode : Variable
Bit rate : 1 301 Kbps
Maximum bit rate : 5 541 Kbps
Width : 1 280 pixels
Height : 720 pixels
Display aspect ratio : 16:9
Frame rate mode : Constant
Frame rate : 25.000 fps
Color space : YUV
Chroma subsampling : 4:2:0
Bit depth : 8 bits
Scan type : Progressive
Bits/(Pixel*Frame) : 0.056
Stream size : 49.1 MiB (89%)
Tagged date : UTC 2011-04-24 14:56:38
Audio #2
ID : 2
Format : AAC
Format/Info : Advanced Audio Codec
Format profile : LC
Codec ID : 40
Duration : 5mn 16s
Bit rate mode : Variable
Bit rate : 152 Kbps
Maximum bit rate : 203 Kbps
Channel(s) : 2 channels
Channel positions : Front: L R
Sampling rate : 44.1 KHz
Compression mode : Lossy
Stream size : 5.71 MiB (10%)
Title : (C) 2007 Google Inc. v08.13.2007.
Encoded date : UTC 2011-04-24 14:56:35
Tagged date : UTC 2011-04-24 14:56:38


Скачать Баста / Гуф - Самурай (2011)

Оплата услуг:

Моментальная оплата:
Мобильной связи,
Интернета,

Телевидения,
IP-телефонии,
Коммунальных и других услуг... За WebMoney, Яндекс-деньги и т.д.

Контакты:

ICQ: 37-07-403 (Администратор)

Календарь: