28 апреля 2011

Зануда (Птаха) - Папиросы (2011) WEBRip

--- | автор: admin | Просмотров: 1011


Название диска: Зануда (Птаха) - Папиросы
Год выхода: 2011
Жанр: Rap
Продолжительность: 00:03:32
Размер: 39 MB

Качество: WEBRip
Видео: MPEG4 Video (H264), 1280x540
Звук: AAC, 44100Hz, stereo

Зануда (Птаха) - Папиросы (2011) WEBRip
Зануда (Птаха) - Папиросы (2011) WEBRip

Зануда (Птаха) - Папиросы (2011) WEBRip

Общее
Формат : MPEG-4
Профиль формата : Base Media / Version 2
Идентификатор кодека : mp42
Размер файла : 39,0 Мбайт
Продолжительность : 3 м. 32 с.
Общий поток : 1541 Кбит/сек
Дата кодирования : UTC 2011-04-20 13:28:44
Дата пометки : UTC 2011-04-20 13:28:44
gsst : 0
gstd : 212333
gssd : BD075E283HH1303472819445903
gshh : tc.v11.cache1.c.youtube.com

Видео
Идентификатор : 1
Формат : AVC
Формат/Информация : Advanced Video Codec
Профиль формата : High@L3.1
Параметр CABAC формата : Да
Параметр ReFrames формата : 1 кадр
Идентификатор кодека : avc1
Идентификатор кодека/Информация : Advanced Video Coding
Продолжительность : 3 м. 32 с.
Вид битрейта : Переменный
Битрейт : 1385 Кбит/сек
Максимальный битрейт : 3101 Кбит/сек
Ширина : 1280 пикс.
Высота : 540 пикс.
Соотношение сторон : 2,35:1
Режим частоты кадров : Переменный
Частота кадров : 24,000 кадр/сек
Минимальная частота кадров : 23,810 кадр/сек
Максимальная частота кадров : 24,390 кадр/сек
Цветовое пространство : YUV
Подвыборка цветности : 4:2:0
Битовая глубина : 8 бит
Тип развёртки : Прогрессивная
Бит/(Пиксели*Кадры) : 0.083
Размер потока : 35,1 Мбайт (90%)
Дата пометки : UTC 2011-04-20 13:28:52

Аудио
Идентификатор : 2
Формат : AAC
Формат/Информация : Advanced Audio Codec
Профиль формата : LC
Идентификатор кодека : 40
Продолжительность : 3 м. 32 с.
Вид битрейта : Переменный
Битрейт : 150 Кбит/сек
Максимальный битрейт : 177 Кбит/сек
Канал(ы) : 2 канала(ов)
Расположение каналов : Front: L R
Частота : 44,1 КГц
Метод сжатия : С потерями
Размер потока : 3,80 Мбайт (10%)
Заголовок : (C) 2007 Google Inc. v08.13.2007.
Дата кодирования : UTC 2011-04-20 13:28:49
Дата пометки : UTC 2011-04-20 13:28:52


Скачать Зануда (Птаха) - Папиросы (2011) WEBRip

Оплата услуг:

Моментальная оплата:
Мобильной связи,
Интернета,

Телевидения,
IP-телефонии,
Коммунальных и других услуг... За WebMoney, Яндекс-деньги и т.д.

Контакты:

ICQ: 37-07-403 (Администратор)

Календарь: